Kategorie
Ranking
RSS
Hosting zapewnia

Google+
Programy

Statystyki
Użytkowników:
Zarejestrowanych wczoraj:
Zarejestrowanych dzisiaj:
Torrentów:
Dodanych wczoraj:
Dodanych dzisiaj:
Warezów:
Dodanych wczoraj:
Dodanych dzisiaj:
70,815
35
3
155,230
89
31
5,093
19
18
Ostatnie 30
Popularne
w Wrzesniu
==Torrent==
Kategoria: TV/Seriale » Horror


Dodał: Lukarusi
Data dodania:
2017-09-13 20:10:40
Rozmiar: 1.35 GB
Seedów: 8
Peerów: 0
Pobrano: 97 razy
Kondycja:









The Strain S04E09 - The Traitor [720p.WEB-DL.H.264.DD5.1] [Napisy PL]



produkcja: USA
gatunek: Horror, Dramat, Fantasy
scenariusz: Guillermo del Toro, Chuck Hogan
reżyseria: J. Miles Dale, Kevin Dowling, Jennifer Lynch
zdjęcia: Miroslaw Baszak
muzyka: Ramin Djawadi
czas trwania: ok. 44 min.



Po wylądowaniu Boeinga na lotnisku Kennedy'ego załoga samolotu nie odpowiada na wezwania radiostacji. Zaangażowani w akcję ratunkową epidemiolodzy odkrywają, że poza czterema pasażerami cała załoga jest martwa a na pokładzie znajduje się trumna. Wkrótce grupa naukowców wraz z dr Ephraimem Goodweatherem na czele mierzy się z nowym, nieznanym dotąd wirusem, który zmienia ludzi w żądne krwi stworzenia.



Corey Stoll - Ephraim Goodweather
Max Charles - Zach Goodweather
Natalie Brown - Kelly Goodweather
Jonathan Hyde - Eldritch Palmer
Robin Atkin Downes - The Master
Anthony Grant Lake - Strigoi
David Bradley - Abraham Setrakian
Richard Sammel - Thomas Eichorst
Kevin Durand - Vasiliy Fet
Ruta Gedmintas - Dutch Velders



Format : Matroska
Format version : Version 4 / Version 2
File size : 1.35 GiB
Duration : 44 min 28 s
Overall bit rate : 4 353 kb/s
Encoded date : UTC 2017-09-13 17:48:00

Video
ID : 1
Format : AVC
Format/Info : Advanced Video Codec
Format profile : [email protected]
Format settings, CABAC : No
Format settings, RefFrames : 2 frames
Codec ID : V_MPEG4/ISO/AVC
Duration : 44 min 28 s
Bit rate : 3 967 kb/s
Width : 1 280 pixels
Height : 720 pixels
Display aspect ratio : 16:9
Frame rate mode : Constant
Frame rate : 23.976 (23976/1000) FPS
Color space : YUV
Chroma subsampling : 4:2:0
Bit depth : 8 bits
Scan type : Progressive
Bits/(Pixel*Frame) : 0.180
Stream size : 1.23 GiB (91%)
Color range : Limited
Color primaries : BT.709
Transfer characteristics : BT.709
Matrix coefficients : BT.709

Audio
ID : 2
Format : AC-3
Format/Info : Audio Coding 3
Format settings, Endianness : Big
Codec ID : A_AC3
Duration : 44 min 28 s
Bit rate mode : Constant
Bit rate : 384 kb/s
Channel(s) : 6 channels
Channel positions : Front: L C R, Side: L R, LFE
Sampling rate : 48.0 kHz
Frame rate : 31.250 FPS (1536 SPF)
Bit depth : 16 bits
Compression mode : Lossy
Stream size : 122 MiB (9%)
Language : English
Service kind : Complete Main

Text
ID : 3
Format : UTF-8
Codec ID : S_TEXT/UTF8
Codec ID/Info : UTF-8 Plain Text
Duration : 43 min 37 s
Bit rate : 57 b/s
Count of elements : 461
Stream size : 18.4 KiB (0%)
Language : Polish

Lista plikówShow/Hide [Pokaż/Ukryj]
Trackery
Tracker URLSeedówPeerówPobrań
http://agusiq-torrents.pl:6969/announce100
udp://shadowshq.eddie4.nl:6969/announce100
http://tracker.tfile.me/announce100
udp://eddie4.nl:6969/announce100
udp://tracker.leechers-paradise.org:6969/announce100
udp://9.rarbg.me:2740/announce100
udp://9.rarbg.com:2710/announce100
http://tracker.torrentyorg.pl/announce100
udp://poloniumsurfer.tk:6969/announce000
http://tracker.filetracker.pl:8089/announce000
udp://torrent.gresille.org:80/announce000
udp://tracker.pomf.se:80/announce000
udp://10.rarbg.com/announce000
udp://tracker.openbittorrent.com:80/announce000
udp://sugoi.pomf.se:80/announce000
udp://tracker.glotorrents.com:6969/announce000
http://mgtracker.org:2710/announce000
udp://tracker.istole.it:80/announce000
udp://tracker.prq.to/announce000
udp://exodus.desync.com:6969/announce000
udp://t1.pow7.com/announce000
udp://tracker.publicbt.com/announce000
http://retracker.omsk.ru:2710/announce
udp://tracker.torrentbay.to:6969/announce000

Komentarze

Brak komentarzy!

Dodawanie komentarza
Komentujesz torrenta:
The Strain S04E09 - The Traitor [720p.WEB-DL.H.264.DD5.1] [Napisy PL]

NAJCZĘŚCIEJ POBIERANE

stat4u Najlepsze strony Torrentowe Torrenty